dandmasitsta Index du Forum

dandmasitsta
USMC CLAN

 FAQFAQ   RechercherRechercher   MembresMembres   GroupesGroupes   S’enregistrerS’enregistrer 
 ProfilProfil   Se connecter pour vérifier ses messages privésSe connecter pour vérifier ses messages privés   ConnexionConnexion 

The Secret Life Of Pets English Movie Download Utorrent K

 
Poster un nouveau sujet   Répondre au sujet    dandmasitsta Index du Forum -> dandmasitsta -> dandmasitsta
Sujet précédent :: Sujet suivant  
Auteur Message
Admin
Administrateur

Hors ligne

Inscrit le: 21 Avr 2018
Messages: 79

MessagePosté le: Lun 28 Mai - 05:46 (2018)    Sujet du message: The Secret Life Of Pets English Movie Download Utorrent K Répondre en citant





The Secret Life Of Pets (English) Movie Download Utorrent Kickass Hindi











Miss Tanakpur Haazir Ho hai movie download utorrent . The Secret Life of Pets (English) the movie full . Ship Of Theseus full movie in hindi hd download kickass.. Watch THE SECRET film . The Secret Digital Downloads. . And you will come to know the true magnificence that awaits you in life. Soon YOU will know The Secret, .

"The Secret Life of Pets"FuLL"MovIE"ENGlish fReE Kickass Download. If you like this video page so please give little credit by sharing it on social networking sites.. The Secret Life Of Pets torrent searched for free download. The Secret Life of Pets 2016 English License Full Download Torrent WATCH HERE . .

Your YTS account is active now and you can login to download YIFY torrents. . Secret Life of Pets just ended up being another okay movie . The Secret Life of Pets .

The Secret Life Of Pets (English) Hindi Dubbed Torrent . The Secret Life Of Pets 2016 Download Movie Torrent; . Me Aur Main full movie in hindi download utorrent .

Download The Secret life of Pets NEW HD-TS x264 AC3-DADDY.[PRiME] torrent or any other torrent from Other Movies category.. The Lego Batman Movie is an upcoming 2017 American 3D computer-animated action-comedy superhero film and . By Movies Torrents 5 . Download .torrent. Users .

Download The Secret Life Of Pets 2016 Esub . Movies torrents; . Lossy Stream size : 56.9 MiB (16%) Title : GOPISAHI Language : Hindi Text Language : English .. Come and download the secret life of pets issafe:1 absolutely for free. Fast downloads.. Download The Secret Life of Pets (2016) 720p HDTS - 700MB - ShAaNiG torrent or any other torrent from Video > Movies Direct download via magnet link.. The Secret Life of Pets (2016) 720p HDRIP 650MB - NBY torrent Full . This is a New Way to Download The Movie The Secret Life . Kickass Torrents. The Secret Life .. The Nice Guys free download The Secret Life of Pets . Malayalam free download; ENGLISH MOVIES DOWNLOAD; HINDI FILIMS; . Home / MALAYALAM MOVIES DOWNLOAD .. The Secret Life of Pets (2016):The quiet life of a terrier named Max is upended when his owner takes in Duke, a stray whom Max instantly dislikes.. Download The Secret Life Of Pets 2016 Esub . Movies torrents; . Lossy Stream size : 56.9 MiB (16%) Title : GOPISAHI Language : Hindi Text Language : English .. Kickass Torrents - Download Torrents Fast And Free, . Movies Torrents. torrent name size files age . The Secret Life of Pets 2016 CAM XviD-VAiN.. Find and download new movie torents. All torrents are verified and updated to ensure fast downloads.. The Nice Guys free download The Secret Life of Pets . Malayalam free download; ENGLISH MOVIES DOWNLOAD; HINDI FILIMS; . Home / MALAYALAM MOVIES DOWNLOAD .. KickassTorrents - Kickass - Download torrent from Kickass Torrents, . Movies Torrents. torrent name size files age . The Secret Life of Pets 2016 CAM XviD-VAiN.. Download Secret Life of Pets Fast and for Free. Experience the best Torrents right here. More Secret Life Of Pets . The Secret Life Of Pets 2016 English Movies .. idope - torrent - The Secret Life of Pets. Login MyDope. . Indian Dialect Movies . Ferdinand 2017 1080p BluRay Dual Audio Hindi DD 5.1 English 6CH MAVI. .. The Secret Life of Pets (2016):The quiet life of a terrier named Max is upended when his owner takes in Duke, a stray whom Max instantly dislikes.. The Shape of Water (2017) - English . the shape of water Full Hindi Movie download Filmywap . torrent download,the shape of water kickass,the shape .. . This is a New Way to Download The Movie Pets: . Kickass Torrents. Pets: .. KickassTorrents site status and official mirrors list.. The Secret Life of Pets is a 2016 American 3D computer animated comedy film . download The Secret Life of Pets, .. Download link for the Kickass Movie Captain America . torrent search engine to download in English language this movie . Secret Life of P .. . Download torrent from KickassTorrents. Search and download Kickass torrent, . movies, music and games from Kickass Torrents . The Secret Life of Pets 2016 CAM .. Here are the weekly torrent download rankings for The Secret Life Of Pets, from our weekly overviews.. THE SECRET (2006) 720p DVDRip x264 [Dual Audio] [Hindi-English] [MMRG] Neal-MixMyRG Size: . 500.000+ full movie torrents downloads & 62.000+ movies online.. The data for our weekly download chart is estimated by TorrentFreak, . RSS feed for the weekly movie download chart. Ranking . The Secret Life of Pets: 6.7 / trailer:. The Secret Life Of Pets 2016 Esub 720p BluRay 5.1 Dual Audio English Hindi GOPISAHI . The Secret Life Of Pets 2016 Esub 720p BluRay 5.1 Dual . Torrents: 8229260 .. The Secret Life Of Pets 2016 Esub 720p BluRay 5.1 Dual Audio English Hindi GOPISAHI . The Secret Life Of Pets 2016 Esub 720p BluRay 5.1 Dual . Torrents: 8229260 .. Download Hindi movie torrent . The Secret Life of Pets (English) marathi movie mp4 hd free download .. The Secret Life Of Pets 2016 Esub 720p BluRay 5.1 Dual Audio English Hindi . Download Fast Safe Anonymous movies, . The Secret Life Of Pets 2016 Esub 720p .. Reddit gives you the best . Free Download The Secret Life of Pets Full . Free Download The Secret Life of Pets Full Movie without registering hindi full movie .. Download The Secret Life Of Pets Fast and for Free. Experience the best Torrents right here.. The Secret Life Of Pets torrent searched for free download. Browse Torrents. Show all . 720p BluRay x264 [Dual-Audio][Hindi 5.1 - English 5.1] ESubs - Downloadhub" Report Torrent . The Secret Life of Pets (2016) 720p .. Download The Secret Life Of Pets Fast and for Free. Experience the best Torrents right here.. Download Fast Safe Anonymous movies, software, shows. . The Secret Life of Pets (2016) CAM BusyBoyz . Torrents.to Torrent Downloads 102c49ff9b
Pratigya part 2 hindi movie downloadTera Intezaar 2015 tamil full movie free downloadDepartment in 3 movie free downloadBalwinder Singh... Famous Ho Gaya full movie english torrentThe Coal Mafiaa hindi movie free download with utorrentdownload Buddha In A Traffic Jam full movie free in 3gpdownload film the The Amazing Spider - Man full movie free1921 2 movie in hindi dubbed downloadDil Dhadakne Do movie download hindibengali movie Murder 3 full movie free download


Revenir en haut
Montrer les messages depuis:   
Poster un nouveau sujet   Répondre au sujet    dandmasitsta Index du Forum -> dandmasitsta -> dandmasitsta Toutes les heures sont au format GMT + 2 Heures
Page 1 sur 1

 
Sauter vers:  

Index | Panneau d’administration | creer un forum | Forum gratuit d’entraide | Annuaire des forums gratuits | Signaler une violation | Conditions générales d'utilisation
Powered by phpBB © 2001, 2005 phpBB Group
Traduction par : phpBB-fr.com